<?xml version="1.0" standalone="no"?>
<!DOCTYPE svg PUBLIC "-//W3C//DTD SVG 1.1//EN" "http://www.w3.org/Graphics/SVG/1.1/DTD/svg11.dtd">
<svg xmlns="http://www.w3.org/2000/svg">
<metadata>This SVG font generated by Fontastic.me</metadata>
<defs>
<font id="minicons-webalys" horiz-adv-x="512">
  <font-face font-family="minicons-webalys" font-weight="500" font-stretch="normal" units-per-em="512" panose-1="2 0 6 3 0 0 0 0 0 0" ascent="480" descent="-32" bbox="-2 -33 514 480" underline-thickness="50" underline-position="-100" unicode-range="U+E000-E021"/>
    <missing-glyph/>
    <glyph glyph-name="glyph0" unicode="&#57344;" d="M0 459h512v-470h-512v470zM469 32v277h-426v-277h426zM469 331v85h-426v-85h426zM235 395v-43h-43v43h43zM171 395v-43h-43v43h43zM107 395v-43h-43v43h43zM193 98l-31 31l53 52l-53 53l31 30l52 -52l53 52l30 -30l-52 -53l52 -52l-30 -31l-53 53z"/>
    <glyph glyph-name="glyph1" unicode="&#57346;" d="M320 245h80l-135 -135l-136 135h84v235h107v-235zM430 331c35 0 61 -20 61 -55v-235c0 -35 -26 -73 -61 -73h-348c-35 0 -61 38 -61 73v235c0 35 26 55 61 55h67v-43h-67c-12 0 -18 0 -18 -12v-160c0 -18 11 -41 29 -41h326c18 0 29 23 29 41v160c0 12 -6 12 -18 12h-67 v43h67zM448 41v33c0 -7 -17 -21 -29 -21h-326c-12 0 -29 14 -29 21v-33c0 -12 6 -30 18 -30h348c12 0 18 18 18 30z"/>
    <glyph glyph-name="glyph2" unicode="&#57347;" d="M448 317l64 -50h-64v-278h-384v278h-64l256 192l85 -64v64h107v-142zM256 32v171h-85v-171h85zM405 32v256l-149 107l-149 -107v-256h42v192h128v-192h128zM405 371v45h-21v-31zM384 181v-85h-85v85h85zM363 117v43h-43v-43h43zM235 117v-21h-22v21h22z"/>
    <glyph glyph-name="glyph3" unicode="&#57348;" d="M427 395h85v-406h-512v406h85v85h128v-85h86v85h128v-85zM341 437v-85h43v85h-43zM128 437v-85h43v85h-43zM469 32v235h-426v-235h426zM469 288v64h-42v-43h-128v43h-86v-43h-128v43h-42v-64h426zM107 203h42v-43h-42v43zM171 203h42v-43h-42v43zM235 203h42v-43h-42v43z M299 203h42v-43h-42v43zM363 203h42v-43h-42v43zM107 139h42v-43h-42v43zM171 139h42v-43h-42v43zM235 139h42v-43h-42v43z"/>
    <glyph glyph-name="glyph4" unicode="&#57345;" d="M299 416h192v-405h-278v42h235v256h-384v-106h-43v149h22v64h85v21c0 24 19 43 43 43h85c24 0 43 -19 43 -43v-21zM448 352v21h-192v64h-85v-64h-86v-21h363zM128 181v-64h64v-64h-64v-64h-64v64h-64v64h64v64h64z"/>
    <glyph glyph-name="glyph5" unicode="&#57352;" d="M64 459h448v-406h-64v-64h-448v406h64v64zM405 32v21h-341v299h-21v-320h362zM469 96v213h-362v-213h362zM469 331v85h-362v-85h362zM299 395v-43h-43v43h43zM235 395v-43h-43v43h43zM171 395v-43h-43v43h43z"/>
    <glyph glyph-name="glyph6" unicode="&#57358;" d="M272 459h48v-470h-48l-85 107h-85c-35 0 -59 29 -59 64v123c0 35 24 69 59 69h85zM171 139v170h-69c-12 0 -17 -14 -17 -26v-123c0 -12 5 -21 17 -21h69zM277 53v342l-85 -86v-170zM363 331c64 -10 85 -53 85 -105s-21 -94 -85 -104v44c43 9 42 32 42 60s1 51 -42 60v45z "/>
    <glyph glyph-name="glyph7" unicode="&#57361;" d="M165 117h-41c6 -16 19 -35 33 -44c6 -4 13 -7 21 -7c2 0 4 -1 4 -1c20 -2 33 -19 31 -39c-3 -25 -30 -40 -53 -27c-7 4 -16 8 -25 16c-15 11 -26 30 -33 49c-6 19 -8 38 -8 52v1h-9c-35 0 -64 29 -64 64v86c0 35 29 64 64 64h80l262 85v-384zM363 358v-269l21 -6v282z M192 301v-154l149 -51v255zM85 160h86v128h-86c-12 0 -21 -9 -21 -21v-86c0 -12 9 -21 21 -21zM448 288h21v-128h-21v128z"/>
    <glyph glyph-name="glyph8" unicode="&#57362;" d="M392 -22c-8 0 -16 2 -25 7l-83 44c-14 7 -42 7 -56 0l-83 -44c-37 -19 -68 4 -61 45l16 92c3 16 -5 41 -17 53l-67 65c-30 29 -16 66 23 72l93 14c16 2 38 17 45 32l41 84c9 18 23 28 38 28s29 -10 38 -28l41 -84c7 -15 29 -30 45 -32l93 -14c39 -6 53 -43 23 -72 l-67 -65c-12 -11 -20 -37 -17 -53l16 -92c3 -20 -2 -32 -8 -39c-7 -8 -17 -13 -28 -13zM256 77c18 0 35 -4 48 -11l82 -43l-16 92c-5 30 8 69 30 90l66 65l-92 13c-30 4 -63 28 -77 56l-41 84l-41 -83c-14 -28 -47 -53 -77 -57l-92 -13l66 -65c22 -21 35 -60 30 -90l-16 -92 l82 43c13 7 30 11 48 11z"/>
    <glyph glyph-name="glyph9" unicode="&#57364;" d="M512 224l-57 -65l8 -87l-84 -19l-44 -75l-79 35l-79 -35l-44 75l-84 19l8 87l-57 65l57 65l-8 87l84 19l44 75l79 -35l79 35l44 -75l84 -19l-8 -87zM352 90l66 15l-6 68l45 51l-45 51l6 68l-66 15l-34 59l-62 -27l-62 27l-34 -59l-66 -15l6 -68l-45 -51l45 -51l-6 -68 l66 -15l34 -59l62 27l62 -27zM256 360c74 0 135 -61 135 -136s-61 -136 -135 -136s-135 61 -135 136s61 136 135 136zM256 109c63 0 114 52 114 115s-51 115 -114 115s-114 -52 -114 -115s51 -115 114 -115z"/>
    <glyph glyph-name="glyph10" unicode="&#57368;" d="M320 395h85v-43h-298v43h85v64h128v-64zM278 395v21h-43v-21h43zM107 331h298v-320l-42 -43h-214l-42 43v320zM171 11v234h-22v-234h22zM213 11v234h-21v-234h21zM256 11v234h-21v-234h21zM363 11v234h-86v-234h86zM363 267v21h-214v-21h214z"/>
    <glyph glyph-name="glyph11" unicode="&#57349;" d="M17 28l94 95l30 -31l-94 -94zM301 459c105 0 190 -85 190 -190s-85 -189 -190 -189c-45 0 -86 16 -118 42l-36 38c-22 31 -35 68 -35 109c0 105 84 190 189 190zM301 123c81 0 147 65 147 146s-66 147 -147 147s-146 -66 -146 -147s65 -146 146 -146z"/>
    <glyph glyph-name="glyph12" unicode="&#57350;" d="M505 54l9 -21l-21 -8c-4 -2 -109 -42 -237 -41c-127 1 -233 44 -237 46l-21 8l9 20c37 85 107 124 161 141c-23 33 -36 81 -35 140c1 99 84 125 127 125s125 -28 124 -127c-1 -59 -13 -107 -37 -140c54 -18 122 -57 158 -143zM259 421c-8 0 -82 -2 -83 -82 c-1 -64 16 -113 45 -134l36 -27l37 26c30 21 47 69 48 133c1 80 -74 84 -83 84zM256 27c87 -1 164 20 200 31c-38 69 -103 97 -154 108l-45 10l-44 -9c-51 -10 -117 -38 -156 -106c36 -12 113 -33 199 -34z"/>
    <glyph glyph-name="glyph13" unicode="&#57351;" d="M0 416h512v-384h-512v384zM469 75v298h-426v-298h426zM309 215c-24 0 -42 18 -42 42s18 43 42 43s43 -19 43 -43s-19 -42 -43 -42zM288 279v-43h43v43h-43zM448 352v-256h-384v256h384zM85 203v-59l129 23zM427 117v65l-342 -60v-5h342zM427 204v127h-342v-106l171 -53z "/>
    <glyph glyph-name="glyph14" unicode="&#57353;" d="M448 288c23 0 43 -20 43 -43v-170c0 -23 -20 -43 -43 -43h-171s22 20 22 43h149v170h-149v43h149zM213 416c23 0 43 -20 43 -43v-298c0 -23 -20 -43 -43 -43h-170c-23 0 -43 20 -43 43v298c0 23 20 43 43 43h170zM149 53v43h-42v-43h42zM213 117v256h-170v-256h170z"/>
    <glyph glyph-name="glyph15" unicode="&#57354;" d="M128 139v128h256v-128h-256zM149 245v-85h214v85h-214zM128 309h256v-21h-256v21zM128 117h107v-21h-107v21zM128 75h64v-22h-64v22zM214 73h21v-21h-21v21zM277 117h107v-21h-107v21zM277 75h107v-22h-107v22zM427 395h42v-427h-372c-35 0 -54 28 -54 63v362 c0 35 19 66 54 66h256c53 0 74 -19 74 -44v-20zM427 11v341h-299v43h256v21h-287c-12 0 -12 -11 -12 -23v-362c0 -12 0 -20 12 -20h330z"/>
    <glyph glyph-name="glyph16" unicode="&#57355;" d="M469 288c23 0 43 -20 43 -43v-213c0 -23 -14 -43 -32 -43h-53v-21h-342v21h-53c-18 0 -32 20 -32 43v213c0 23 20 43 43 43h42v171h342v-171h42zM85 11v106h-21v-106h21zM384 11v106h-43v-21h-170v21h-43v-106h256zM384 288v128h-256v-128h256zM448 11v106h-21v-106h21z M469 224v21h-42v-21h42zM171 53v22h170v-22h-170z"/>
    <glyph glyph-name="glyph17" unicode="&#57356;" d="M448 416c35 0 64 -29 64 -64v-235c0 -35 -29 -64 -64 -64h-21l-22 -42h-21l-21 42h-214l-21 -42h-21l-22 42h-21c-35 0 -64 29 -64 64v235c0 35 29 64 64 64h384zM469 117v235c0 12 -9 21 -21 21h-384c-12 0 -21 -9 -21 -21v-235c0 -12 9 -21 21 -21h384c12 0 21 9 21 21 zM64 117v235h320v-235h-320zM85 331v-192h278v192h-278zM405 331h22v-22h-22v22zM427 309h21v-21h-21v21zM405 288h22v-21h-22v21zM427 267h21v-22h-21v22zM405 203h43v-22h-43v22zM405 160h43v-21h-43v21z"/>
    <glyph glyph-name="glyph18" unicode="&#57357;" d="M117 239l70 -13l-111 -76l-76 112l77 -15c11 89 86 152 177 152c55 0 104 -26 137 -65l-34 -23c-25 29 -62 47 -102 47c-70 0 -128 -62 -138 -119zM436 298l76 -112l-77 15c-11 -89 -86 -152 -177 -152c-55 0 -104 26 -137 65l34 23c25 -29 62 -47 102 -47 c70 0 128 62 138 119l-70 13z"/>
    <glyph glyph-name="glyph19" unicode="&#57359;" d="M405 288h43v-235c0 -35 -29 -64 -64 -64h-256c-35 0 -64 29 -64 64v235h43v64c0 43 42 107 149 107s149 -64 149 -107v-64zM149 373v-85h214v85s-22 43 -107 43s-107 -43 -107 -43zM405 53v192h-298v-192c0 -12 9 -21 21 -21h256c12 0 21 9 21 21zM235 123 c-13 7 -22 21 -22 37c0 24 19 43 43 43s43 -19 43 -43c0 -16 -9 -30 -22 -37v-48h-42v48z"/>
    <glyph glyph-name="glyph20" unicode="&#57360;" d="M277 352v-43h-128v43h128zM341 288v-21h-192v21h192zM341 245v-21h-192v21h192zM427 224l42 21v-277h-448v277l43 -22v236h363v-235zM107 416v-215l138 -71l96 51h-192v22h192v-21l43 23v211h-277zM64 11h313l-313 167v-167zM427 33v145l-136 -72z"/>
    <glyph glyph-name="glyph21" unicode="&#57363;" d="M0 459h512v-470h-512v470zM469 32v277h-426v-277h426zM469 331v85h-426v-85h426zM235 395v-43h-43v43h43zM171 395v-43h-43v43h43zM107 395v-43h-43v43h43z"/>
    <glyph glyph-name="glyph22" unicode="&#57365;" d="M427 459c35 0 64 -29 64 -64v-235c0 -35 -29 -64 -64 -64h-171l-192 -128v128c-21 0 -64 8 -64 43v256c0 35 29 64 64 64h363zM448 160v235c0 12 -9 21 -21 21h-363c-12 0 -21 -9 -21 -21v-235c0 -12 9 -21 21 -21h43v-107l128 107h192c12 0 21 9 21 21z"/>
    <glyph glyph-name="glyph23" unicode="&#57366;" d="M85 139v64h64v-64h-64zM107 181v-21h21v21h-21zM171 139v64h64v-64h-64zM192 181v-21h21v21h-21zM171 53v64h64v-64h-64zM192 96v-21h21v21h-21zM85 53v64h64v-64h-64zM107 96v-21h21v21h-21zM256 139v64h64v-64h-64zM277 181v-21h22v21h-22zM213 267v21h22v-21h-22z M171 267v21h21v-21h-21zM85 224v192h342v-192h-342zM107 395v-150h298v150h-298zM427 480c35 0 64 -29 64 -64v-384c0 -35 -29 -64 -64 -64h-342c-35 0 -64 29 -64 64v384c0 35 29 64 64 64h342zM448 32v384c0 12 -9 21 -21 21h-342c-12 0 -21 -9 -21 -21v-384 c0 -12 9 -21 21 -21h342c12 0 21 9 21 21zM256 53v64h64v-64h-64zM277 96v-21h22v21h-22zM341 53v150h86v-150h-86zM363 181v-106h42v106h-42zM128 267v21h21v-21h-21z"/>
    <glyph glyph-name="glyph24" unicode="&#57367;" d="M256 480c141 0 256 -115 256 -256s-115 -256 -256 -256s-256 115 -256 256s115 256 256 256zM256 139c47 0 85 38 85 85s-38 85 -85 85s-85 -38 -85 -85s38 -85 85 -85zM43 224c0 -59 23 -112 62 -151l61 61c-23 23 -38 55 -38 90s15 67 38 90l-61 61 c-39 -39 -62 -92 -62 -151zM407 73c39 39 62 92 62 151s-23 112 -62 151l-61 -61c23 -23 38 -55 38 -90s-15 -67 -38 -90z"/>
    <glyph glyph-name="glyph25" unicode="&#57369;" d="M260 233l-89 -89v59h-150v64h150v56zM192 459h277v-406l-192 -64v86h-85v5l43 42v-5h42v256l130 43h-172v-72l-43 43v72z"/>
    <glyph glyph-name="glyph26" unicode="&#57370;" d="M171 331h128v-43h-128v43zM171 245v22h192v-22h-192zM363 224v-21h-171v21h171zM363 160h-150v21h150v-21zM171 181v-64h64v-64h-64v-64h-64v64h-64v64h64v64h64zM85 437h363v-448h-206l22 43h141v363h-277v-171h-43v213z"/>
    <glyph glyph-name="glyph27" unicode="&#57371;" d="M348 118c-69 0 -139 -44 -210 -44c-32 0 -61 8 -88 25l-7 7v328l31 -21c20 -13 39 -19 63 -19c32 0 65 10 99 21c36 12 74 23 112 23c20 0 36 -3 57 -9v8h43v-470h-43v138c-21 9 -37 13 -57 13zM348 396c-69 0 -138 -45 -209 -45c-20 0 -33 3 -54 9v-230 c21 -9 34 -14 54 -14c32 0 63 11 97 22c36 11 74 23 112 23c20 0 36 -3 57 -9v230c-21 9 -37 14 -57 14z"/>
    <glyph glyph-name="glyph28" unicode="&#57372;" d="M492 370c-12 -18 -29 -35 -49 -50v-12c0 -44 -10 -87 -30 -128s-53 -76 -96 -104s-92 -42 -148 -42c-55 0 -105 14 -149 43c5 -1 13 -1 24 -1c45 0 85 13 120 40c-45 1 -79 31 -90 68c3 -1 9 -2 17 -2c9 0 18 1 26 3c-42 9 -77 46 -77 95v1c12 -7 27 -11 43 -12 c-29 20 -43 47 -43 81c0 16 4 32 13 48c53 -64 119 -97 200 -100c-2 6 -3 13 -3 21c0 53 43 96 97 96c28 0 52 -9 70 -29c20 4 41 11 61 22c-7 -23 -21 -40 -42 -53c19 3 38 7 56 15z"/>
    <glyph glyph-name="glyph29" unicode="&#57376;" d="M168 189c-8 11 -16 29 -16 44l1 7h-8c-22 0 -40 6 -56 16c-25 15 -38 42 -38 82c0 38 20 70 42 85c19 13 50 26 77 26h118v-2c0 -8 -13 -13 -40 -18c-10 0 -17 -1 -20 -3c28 -14 35 -37 35 -78c0 -35 -12 -62 -35 -81c-13 -13 -19 -23 -19 -28c0 -6 8 -16 25 -32 c36 -31 54 -62 54 -92c0 -48 -20 -81 -60 -99c-23 -12 -48 -17 -76 -17h-2l-3 1c-1 -1 -1 -1 -2 -1c-26 0 -42 4 -66 13c-31 11 -52 40 -52 82c0 43 26 71 59 81c29 9 49 14 81 14h1zM158 166c-38 -1 -83 -32 -80 -72c5 -59 104 -68 144 -33c28 24 23 66 -3 88 c-13 11 -31 17 -53 17h-8zM210 362c-10 37 -32 56 -63 56c-4 0 -7 0 -10 -1c-27 -8 -41 -48 -31 -87c8 -28 29 -60 61 -60c4 0 7 0 9 1c28 8 46 50 34 91zM409 273h76v-48h-76v-77h-49v77h-76v48h76v77h49v-77z"/>
    <glyph glyph-name="glyph30" unicode="&#57377;" d="M304 145c0 23 13 46 34 46c20 0 33 -24 33 -46s-13 -46 -33 -46c-21 0 -34 23 -34 46zM256 24c-8 0 -37 1 -44 1c-32 0 -67 5 -92 15s-54 32 -69 54c-19 27 -31 71 -31 118c0 39 13 72 38 99c-3 1 -2 15 0 41s8 50 17 72c31 -3 70 -22 116 -54c16 4 38 7 65 7 c29 0 51 -3 65 -7c21 14 41 26 60 35s34 15 43 16l13 3c9 -22 15 -46 17 -72s3 -40 0 -41c25 -27 38 -60 38 -99c0 -72 -23 -121 -64 -151c-24 -18 -41 -25 -73 -31c-24 -4 -32 -5 -55 -5c-7 0 -36 -1 -44 -1zM257 227h-2c-19 0 -65 4 -83 5c-23 1 -48 -6 -61 -18 c-18 -16 -27 -37 -27 -62c0 -42 14 -70 43 -84s71 -20 128 -20h2c57 0 100 6 129 20s43 42 43 84c0 36 -25 72 -61 78c-13 2 -32 2 -58 0s-43 -3 -53 -3zM175 191c20 0 33 -24 33 -46s-13 -46 -33 -46c-21 0 -34 23 -34 46s13 46 34 46z"/>
    <glyph glyph-name="glyph31" unicode="&#57373;" d="M384 375h-73c-11 0 -18 -15 -18 -27v-52h91v-76h-91v-226h-87v226h-78v76h78v44c0 62 44 114 105 114h73v-79z"/>
  </font>
</defs>
</svg>
